210 soundtrack 9a09340d CD database entry follows (until terminating `.') # xmcd # # Track frame offsets: # 150 # 15105 # 26335 # 40545 # 48890 # 66822 # 92035 # 104685 # 114340 # 130040 # 146350 # 165575 # 171530 # # Disc length: 2358 seconds # # Revision: 0 # Processed by: cddbd v1.5.2PL0 Copyright (c) Steve Scherf et al. # Submitted via: audiograbber 1.83.01 # DISCID=9a09340d DTITLE=Pink Floyd / 1979 - The Wall (Disc 01) DYEAR=1979 DGENRE=Progressive Rock TTITLE0=In The Flesh? TTITLE1=The Thin Ice TTITLE2=Another Brick In The Wall (Part 1) TTITLE3=The Happiest Day Of Our Lives TTITLE4=Another Brick In The Wall (Part 2) TTITLE5=Mother TTITLE6=Goodbye Blue Sky TTITLE7=Empty Spaces TTITLE8=Young Lust TTITLE9=One Of My Turns TTITLE10=Don't Leave Me Now TTITLE11=Another Brick In The Wall (Part 3) TTITLE12=Goodbye Cruel World EXTD= EXTT0= EXTT1= EXTT2= EXTT3= EXTT4= EXTT5= EXTT6= EXTT7= EXTT8= EXTT9= EXTT10= EXTT11= EXTT12= PLAYORDER= .